Skip to main content

Patterson Hood Live at The High Watt on 2012-12-14




Patterson Hood & The Downtown Rumblers
2012-12-14
The High Watt
Nashville, TN.


***16bit Source***


Source: SBD + Schoeps MK4V > KC5 > CMC6 > Sound Devices 744T (24bit/48kHz)
Location: FOB / SLOC / AB / 8ft
Transfer: 744T > HDD > Wavelab 6.1 (DSP/Crystal Re-Sampler/MBit+ Dither/Fades) > CDWave > TLH > FLAC (8)
Taped, Transferred & Seeded by Martin Medley


One Set:

01. Disappear
02. 12:01 Club
03. Leaving Time
04. Little Bonnie
05. Pride Of The Yankees
06. Two Daughters And A Beautiful Wife
07. Better Than The Truth
08. Untold Pretties
09. After The Damage
10. Better Off Without
11. Betty Ford
12. Pollyanna
13. Miss Me Gone
14. Heat Lightning Rumbles In The Distance
15. Come Back Little Star
16. Fifteen Days

Encore:

17. The Righteous Path
18. World Of Hurt
19. Back Of A Bible


Collection PattersonHood
Band/Artist Patterson Hood
Date December 14, 2012
Venue The High Watt
Location Nashville, TN.

Source SBD + Schoeps MK4V > KC5 > CMC6 > Sound Devices 744T (24bit/48kHz)
Lineage 744T > HDD > Wavelab 6.1 (DSP/Crystal Re-Sampler/MBit+ Dither/Fades) > CDWave > TLH > FLAC (8)
Taped by Martin Medley
Transferred by Martin Medley


Notes

shntool info:

length expanded size cdr WAVE problems fmt ratio filename
5:40.24 60032492 B --- -- ---xx flac 0.5485 pattersonhood2012-12-14t01.flac
6:17.13 66533420 B --- -- ---xx flac 0.5117 pattersonhood2012-12-14t02.flac
3:34.55 37879004 B --- -- ---xx flac 0.5919 pattersonhood2012-12-14t03.flac
3:54.39 41369372 B --- -- ---xx flac 0.5545 pattersonhood2012-12-14t04.flac
6:28.19 68487932 B --- -- ---xx flac 0.5010 pattersonhood2012-12-14t05.flac
4:35.35 48592364 B --- -- ---xx flac 0.5143 pattersonhood2012-12-14t06.flac
4:00.60 42477164 B --- -- ---xx flac 0.5391 pattersonhood2012-12-14t07.flac
3:47.63 40191020 B --- -- ---xx flac 0.5457 pattersonhood2012-12-14t08.flac
7:48.46 82663436 B --- -- ---xx flac 0.5082 pattersonhood2012-12-14t09.flac
4:14.09 44826812 B --- -- ---xx flac 0.5644 pattersonhood2012-12-14t10.flac
3:01.58 32064860 B --- -- ---xx flac 0.6031 pattersonhood2012-12-14t11.flac
4:44.45 50203484 B --- -- ---xx flac 0.6454 pattersonhood2012-12-14t12.flac
5:38.31 59696156 B --- -- ---xx flac 0.6265 pattersonhood2012-12-14t13.flac
7:50.46 83016236 B --- -- ---xx flac 0.5173 pattersonhood2012-12-14t14.flac
4:44.08 50116460 B --- -- ---xx flac 0.5882 pattersonhood2012-12-14t15.flac
6:33.59 69464012 B --- -- ---xx flac 0.5477 pattersonhood2012-12-14t16.flac
5:42.33 60406460 B --- -- ---xx flac 0.5907 pattersonhood2012-12-14t17.flac
8:12.70 86953484 B --- -- ---xx flac 0.5631 pattersonhood2012-12-14t18.flac
6:56.36 73467116 B --- -- ---xx flac 0.5831 pattersonhood2012-12-14t19.flac
103:46.74 1098441284 B 0.5561 (19 files)

Reviews

Reviewer: _davieto_ - - January 17, 2013
Subject: Great show. Great Recording!
Thank you Martin! I had made all the plans to make this show but daughter got sick. Thank you so much for taping this and for making an incredible matrix as well!

Your time and efforts are very appreciated!

Download Options
584.6M
FLAC
67.4M
OGG VORBIS
4.0K
TEXT
46.9K
TORRENT
144.0M
VBR M3U
144.0M
VBR MP3
-
VBR ZIP
Uploaded by
mmedley
on 12/17/2012
Views
1,056
Favorites
1
Reviews
1
PEOPLE ALSO FOUND
Patterson Hood
by Patterson Hood
378
0
0
Source: Schoeps MK4V (ORTF) > KC5 > CMC6 > Sound Devices 722 (24bit/48kHz)
Patterson Hood
by Patterson Hood
696
0
1
( 1 reviews )
Source: SBD + Schoeps MK4V > KC5 > CMC6 > Sound Devices 744T (24bit/48kHz)
Patterson Hood
by Patterson Hood
122
0
0
Source: Schoeps MK4V > KC5 > CMC6 > Sound Devices 744T (24bit/48kHz)
Patterson Hood
by Patterson Hood
1,233
0
0
Source: Schoeps MK4V (ORTF) > KC5 > CMC6 > Sound Devices 722 (24bit/48kHz)
Patterson Hood
by Patterson Hood
1,055
1
1
( 1 reviews )
Source: SBD + Schoeps MK4V > KC5 > CMC6 > Sound Devices 744T (24bit/48kHz)
Outformation
by Outformation
105
0
0
Source: Schoeps CCM-4L > Lunatec V3 > Tascam HD-P2
Grand Theft Maidcart
by Grand Theft Maidcart
129
0
0
Source: Schoeps MK4V > KC5 > CMC6 > Sound Devices 722 (24bit/48kHz)
Truth and Salvage Co
by Truth and Salvage Co
312
0
0
Source: SBD > Sound Devices 722 (24bit/48kHz)
Outformation
by Outformation
784
0
0
Source: Scheops MK4V > KC5 > CMC6 > Sound Devices 722 (24bit/48kHz)
Stockholm Syndrome
by Stockholm Syndrome
149
0
0
Source: Schoeps MK4V > KC5 > CMC6 > Sound Devices 722 (24bit/48kHz)